User:      Hasło:     



User Info
User:
Hasło:
Stwórz kontoOdzyskiwanie hasła


Kategorie


Vikings S05E03 Homeland [1080p AMZN WEB DL H 264 AC3] [Lektor PL] [ENG+Napisy PL]


Kategoria: Seriale Zagraniczne


Dodał:  Morus12
Data dodania: 
13-12-2017
Rozmiar: 2.56 GB

Seedów: 18
Peerów: 10
Ukończone: 255

Pobrany: 21

Kondycja:

Pobierz


Info:
produkcja: Irlandia, Kanada
gatunek: Dramat, Akcja, Przygodowy
reżyseria: David Wellington, Ciaran Donnelly, Steve Saint Leger,
scenariusz: Michael Hirst
zdjęcia: Peter Robertson, Suzie Lavelle
muzyka: Trevor Morris
czas trwania: ok. 44 min.
Opis:
"Vikings" opowiada historię Ragnara Lothbroka oraz jego braci i rodziny. Serial ukazuje jak Ragnar staje się królem wikińskich plemion. Poza byciem nieustraszonym wojownikiem, Ragnar jest ucieleśnieniem nordyckiej tradycji i oddania się bogom. Legenda mówi, że jest on bezpośrednim potomkiem Odyna, boga wojny i wojowników.
Obsada:
Travis Fimmel - Ragnar Lothbrok
Katheryn Winnick - Lagertha Lothbrok
Gustaf Skarsgård - Floki
Alexander Ludwig - Bjorn
Alex Høgh Andersen - Ivar
Marco Ilsø - Hvitserk
David Lindström - Sigurd
Jordan Patrick Smith - Ubbe
Josefin Asplund - Astrid
Maude Hirst - Helga
Ida Nielsen - Margrethe
Dane techniczne:
Format : Matroska
Format version : Version 4 / Version 2
File size : 2.56 GiB
Duration : 44 min 17 s
Overall bit rate mode : Variable
Overall bit rate : 8 263 kb/s
Encoded date : UTC 2017-12-12 13:59:50
Video
ID : 1
Format : AVC
Format/Info : Advanced Video Codec
Format profile : [email protected]
Format settings, CABAC : Yes
Format settings, RefFrames : 4 frames
Codec ID : V_MPEG4/ISO/AVC
Duration : 44 min 17 s
Bit rate mode : Variable
Bit rate : 7 492 kb/s
Maximum bit rate : 15.0 Mb/s
Width : 1 920 pixels
Height : 1 080 pixels
Display aspect ratio : 16:9
Frame rate mode : Constant
Frame rate : 23.976 (24000/1001) FPS
Color space : YUV
Chroma subsampling : 4:2:0
Bit depth : 8 bits
Scan type : Progressive
Bits/(Pixel*Frame) : 0.151
Stream size : 2.32 GiB (91%)
Color range : Limited
Color primaries : BT.709
Transfer characteristics : BT.709
Matrix coefficients : BT.709
Audio 1
ID : 2
Format : AC-3
Format/Info : Audio Coding 3
Format settings, Endianness : Big
Codec ID : A_AC3
Duration : 44 min 17 s
Bit rate mode : Constant
Bit rate : 384 kb/s
Channel(s) : 2 channels
Channel positions : Front: L R
Sampling rate : 48.0 kHz
Frame rate : 31.250 FPS (1536 SPF)
Bit depth : 16 bits
Compression mode : Lossy
Stream size : 122 MiB (5%)
Language : Polish
Service kind : Complete Main
Default : Yes
Forced : Yes
Audio 2
ID : 3
Format : AC-3
Format/Info : Audio Coding 3
Format settings, Endianness : Big
Codec ID : A_AC3
Duration : 44 min 17 s
Bit rate mode : Constant
Bit rate : 384 kb/s
Channel(s) : 6 channels
Channel positions : Front: L C R, Side: L R, LFE
Sampling rate : 48.0 kHz
Frame rate : 31.250 FPS (1536 SPF)
Bit depth : 16 bits
Compression mode : Lossy
Stream size : 122 MiB (5%)
Language : English
Service kind : Complete Main
Default : No
Forced : No
Text
ID : 4
Format : UTF-8
Codec ID : S_TEXT/UTF8
Codec ID/Info : UTF-8 Plain Text
Duration : 40 min 52 s
Bit rate : 24 b/s
Count of elements : 249
Stream size : 7.34 KiB (0%)
Language : Polish
Default : No
Forced : No
Pliki
 [Pokaż/ukryj Pliki]
(1) file
Ocena N/A
Tracker
 [Pokaż/ukryj Trackery] 
Podobne
Nie znaleziono podobnych tytułów!


Komentarze


Brak Komentarzy!!!