User:      Hasło:     



User Info
User:
Hasło:
Stwórz kontoOdzyskiwanie hasła


Kategorie


Designated Survivor S02E15-16 [1080p WEB-DL H 264 DD5 1] [Lektor PL]


Kategoria: Seriale Zagraniczne


Dodał:  Morus12
Data dodania: 
16-04-2018
Rozmiar: 3.17 GB

Seedów: 7
Peerów: 9
Ukończone: 154

Pobrany: 5

Kondycja:

Pobierz






produkcja: USA
gatunek: Dramat, Thriller, Polityczny
reżyseria: Paul A. Edwards, Michael Katleman, Paul McGuigan
scenariusz: David Guggenheim, Jon Harmon Feldman, Michael Gunn
zdjęcia: Adam Suschitzky, Cort Fey, M. David Mullen
muzyka: Sean Callery, Robert Lydecker
czas trwania: ok. 42 min.



Trzymający w napięciu thriller polityczny. Po ataku terrorystycznym na waszyngtońskie elity losy Ameryki znajdują się w rękach nisko postawionego sekretarza gabinetu.



Kiefer Sutherland - Tom Kirkman
Natascha McElhone - Alex Kirkman
Adan Canto - Aaron Shore
Italia Ricci - Emily Rhodes
LaMonica Garrett - Mike Ritter
Tanner Buchanan - Leo Kirkman
Kal Penn - Seth Wright
Maggie Q - Hannah Wells
Ashley Zukerman - Peter MacLeish



Format : Matroska
Format version : Version 4 / Version 2
File size : 1.58 GiB
Duration : 41 min 27 s
Overall bit rate : 5 466 kb/s
Encoded date : UTC 2018-04-12 15:29:28

Video
ID : 1
Format : AVC
Format/INFO : Advanced Video Codec
Format profile : High@L4
Format settings, CABAC : Yes
Format settings, RefFrames : 4 frames
Codec ID : V_MPEG4/ISO/AVC
Duration : 41 min 27 s
Bit rate : 5 145 kb/s
Width : 1 920 pixels
Height : 1 080 pixels
Display aspect ratio : 16:9
Frame rate mode : Constant
Frame rate : 23.976 (24000/1001) FPS
Color space : YUV
Chroma subsampling : 4:2:0
Bit depth : 8 bits
Scan type : Progressive
Bits/(Pixel*Frame) : 0.103
Stream size : 1.47 GiB (93%)
Color range : Limited
Color primaries : BT.709
Transfer characteristics : BT.709
Matrix coefficients : BT.709

Audio
ID : 2
Format : AC-3
Format/INFO : Audio Coding 3
Format settings, Endianness : Big
Codec ID : A_AC3
Duration : 41 min 27 s
Bit rate mode : Constant
Bit rate : 384 kb/s
Channel(s) : 6 channels
Channel positions : Front: L C R, Side: L R, LFE
Sampling rate : 48.0 kHz
Frame rate : 31.250 FPS (1536 SPF)
Bit depth : 16 bits
Compression mode : Lossy
Stream size : 114 MiB (7%)
Language : Polish
Service kind : Complete Main*censored*

 
Pliki
 [Pokaż/ukryj Pliki]
(2) files
Ocena N/A
Tracker
 [Pokaż/ukryj Trackery] 
Podobne


Komentarze


Brak Komentarzy!!!