User:      Hasło:     





User Info
User:
Hasło:
Stwórz kontoOdzyskiwanie hasła


Kategorie


SpongeBob Kanciastoporty [S01E07] [TVRip] [XviD] [Dubbing PL]


Kategoria: Bajki Pl/Eng


Dodał:  torentup
Data dodania: 
12-01-2017
Rozmiar: 174.43 MB

Seedów: 1
Peerów: 1
Ukończone: ---

Pobrany: 3

Kondycja:

Pobierz

=====================
INFO
================


Produkcja: USA
Gatunek: serial animowany
Czas trwania : 21 minut
Reżyseria: Artur Tyszkiewicz

=====================
OPIS
====================

SpongeBob Kanciastoporty, czyli zabawna gąbka, która nosi kanciaste portki i mieszka w domku z ananasa na dnie Oceanu, w miejscowości Bikini Dolne. Jego największą życiową ambicją jest bycie najlepszym w Oceanie kucharzem, specjalistą w smażeniu smakołyków. Pracuje w podwodnej restauracji serwującej kraboburgery, dzięki czemu każdego dnia spełnia swe marzenie. Pełen
optymizmu i inicjatywy, zawsze potrafi po mistrzowsku wpakować się w tarapaty, wciągając w nie przy okazji wszystkich wokół. Tak już jest, jak się ktoś za bardzo stara! W wolnych chwilach SpongeBob poluje na meduzy, puszcza bańki mydlane i doskonale bawi się w towarzystwie swoich przyjaciół - rozgwiazdy Patryka, wiewiórki Sandy oraz ośmiornicy Skalmara.



=====================
OBSADA
====================

Jacek Kopczyński - SpongeBob
Paweł Szczesny - Patryk
Zbigniew Suszyński -Skalmar
Mirosław Zbrojewicz - Pan Krab
Monika Pikuła - Sandy
Dariusz Odija - Plankton
Mirosława Krajewska - Pani Puff

=====================
DANE TECHNICZNE
=====================

Przykładowy odcinek [S01E01]

Format             : AVI
Format/Info          : Audio Video Interleave
File size           : 174 MiB
Duration            : 21mn 13s
Overall bit rate        : 1 148 Kbps

Video
ID               : 0
Format             : AVC
Format/Info          : Advanced Video Codec
Format profile         : High@L5.1
Format settings, CABAC     : Yes
Format settings, ReFrames   : 2 frames
Codec ID            : H264
Duration            : 21mn 13s
Bit rate            : 1 008 Kbps
Width             : 560 pixels
Height             : 412 pixels
Display aspect ratio      : 4:3
Frame rate           : 25.000 fps
Color space          : YUV
Chroma subsampling       : 4:2:0
Bit depth           : 8 bits
Scan type           : Progressive
Bits/(Pixel*Frame)       : 0.175
Stream size          : 153 MiB (88%)
Writing library        : x264 core 59
Encoding settings       : cabac=1 / ref=1 / deblock=1:0:0 / analyse=0x3:0x113 / me=hex / subme=5 / brdo=0 / mixed_ref=0 / me_range=16 / chroma_me=1 / trellis=0 / 8x8dct=1 / cqm=0 / deadzone=21,11 / chroma_qp_offset=0 / threads=2 / nr=0 / decimate=1 / mbaff=0 / bframes=2 / b_pyramid=0 / b_adapt=1 / b_bias=0 / direct=1 / wpredb=1 / bime=0 / keyint=250 / keyint_min=25 / scenecut=40(pre) / rc=2pass / bitrate=1008 / ratetol=1.0 / rceq='blurCplx^(1-qComp)' / qcomp=1.00 / qpmin=10 / qpmax=51 / qpstep=4 / cplxblur=20.0 / qblur=0.5 / ip_ratio=1.40 / pb_ratio=1.30 / aq=2:1.00

Audio
ID               : 1
Format             : MPEG Audio
Format version         : Version 1
Format profile         : Layer 3
Codec ID            : 55
Codec ID/Hint         : MP3
Duration            : 21mn 13s
Source duration        : 21mn 13s
Bit rate mode         : Constant
Bit rate            : 128 Kbps
Channel(s)           : 2 channels
Sampling rate         : 44.1 KHz
Compression mode        : Lossy
Delay relative to video    : 26ms
Stream size          : 19.4 MiB (11%)
Alignment           : Split accross interleaves
Interleave, duration      : 26 ms (0.65 video frame)
Pliki
 [Pokaż/ukryj Pliki]
(1) file
Ocena N/A
Tracker
 [Pokaż/ukryj Trackery] 
Podobne


Komentarze


Brak Komentarzy!!!