User:      Hasło:     



User Info
User:
Hasło:
Stwórz kontoOdzyskiwanie hasła


Kategorie


Criminal *2016* [TS XviD-VAiN] [ENG]


Kategoria: Filmy TS/CAM

Gatunek: Akcja / Sensacyjny

Dodał:  Dezerter33
Data dodania: 
21-05-2016
Rozmiar: 1.44 GB

Seedów: 4
Peerów: 1
Ukończone: 27008

Pobrany: 30

Kondycja:

Pobierz

INFO

Produkcja: USA, Wielka Brytania
Gatunek: Dramat, Kryminał, Akcja
Premiera: 5 lutego 2016 (świat)
Reżyseria: Array
Scenariusz: Douglas Cook, David Weisberg



OPIS

Wspomnienia i umiejętności zmarłego agenta CIA zostają wszczepione skazańcowi, by mógł dokończyć jego misję.



OBSADA

Kevin Costner .... Jericho Stewart
Ryan Reynolds .... Bill Pope
Gal Gadot .... Jill Pope
Gary Oldman .... Quaker Wells
Tommy Lee Jones .... Dr Franks
Alice Eve .... Marta Lynch
Jordi Mollŕ .... Hagbardaka Heimbahl
Scott Adkins .... Pete Greensleeves



DANE TECHNICZNE

Basic Information
Format : AVI
Format/Info : Audio Video Interleave
File size : 1.42 GiB
Duration : 1h 44mn
Overall bit rate : 1 948 Kbps
Writing application : VirtualDubMod 1.5.10.2 (build 2540/release)
Writing library : VirtualDubMod build 2540/release

Video
ID : 0
Format : MPEG-4 Visual
Format profile : Advanced Simple@L5
Format settings, BVOP : 2
Format settings, QPel : No
Format settings, GMC : No warppoints
Format settings, Matrix : Default (H.263)
Muxing mode : Packed bitstream
Codec ID : XVID
Codec ID/Hint : XviD
Duration : 1h 44mn
Bit rate : 1 733 Kbps
Width : 720 pixels
Height : 288 pixels
Display aspect ratio : 2.500
Frame rate : 60.000 fps
Color space : YUV
Chroma subsampling : 4:2:0
Bit depth : 8 bits
Scan type : Progressive
Compression mode : Lossy
Bits/(Pixel*Frame) : 0.139
Stream size : 1.27 GiB (89%)
Writing library : XviD 64

Audio
ID : 1
Format : AC-3
Format/Info : Audio Coding 3
Mode extension : CM (complete main)
Format settings, Endianness : Big
Codec ID : 2000
Duration : 1h 44mn
Bit rate mode : Constant
Bit rate : 192 Kbps
Channel(s) : 2 channels
Channel positions : Front: L R
Sampling rate : 44.1 KHz
Frame rate : 28.711 fps (1536 spf)
Compression mode : Lossy
Stream size : 144 MiB (10%)
Alignment : Split accross interleaves
Interleave, duration : 17 ms (1.00 video frame)
Interleave, preload duratio : 500 ms
Pliki
 [Pokaż/ukryj Pliki]
(4) files
Ocena N/A
Tracker
Podobne


Komentarze


Brak Komentarzy!!!