User:      Hasło:     



User Info
User:
Hasło:
Stwórz kontoOdzyskiwanie hasła


Kategorie


Legenda o Kolovrate [2017] [720p] [BDRIP] [AC3 5 1] [x264] [napisy PL]


Kategoria: Filmy BluRay/HDTV 1080p

Gatunek: Akcja / Sensacyjny

Dodał:  Morus12
Data dodania: 
12-07-2018
Rozmiar: 1.27 GB

Seedów: 2
Peerów: 1
Ukończone: 26

Pobrany: 38

Kondycja:

Pobierz




..::(INFO)::..

tyluł :
Legenda o Kolovrate
Furious
The legend of Kolovrat
??????? ? ?????????
:
reżyseria:      Dzhanik Fayziev, Ivan Shurkhovetskiy
scenariusz:     Dmitriy Paltsev, Dmitriy Raevskiy
gatunek: Akcja Historyczny
produkcja: Rosja
premiera: 2017 (świat)
:

..::(Opis)::..

Historia legendarnego Jewpatija Kołowrata i 17 wojowników broniących swojej ziemi przed armią tysięcy dobrze wyszkolonych wojsk mongolskich i ich wodza, Batu Chana w XIII-wieku. Mongołowie zbliżają się do Europy, atakują pierwsze rosyjskie Księstwo.

..::OBSADA::..

Ilya Malakov ... Evpatii Kolovrat
Aleksey Serebryakov ... Knyaz Yutiy
Aleksandr Ilin ... Karkun
Timofey Tribuntsev ... Zakhar
Yuliya Khlynina  ... Lada (as Ulia Hlinina)
Andrey Burkovskiy  ... Rostislav
Igor Savochkin  ... Ratmir
Polina Chernyshova   ...   Nastya
Aleksandr Tsoy    ... Khan Batiy
Viktor Proskurin   ... Svyasschennik
Sergey Koltakov   ... Dobromir

..::(DANE TECH)::..

Video
ID                          : 1
Format                      : AVC
Format/INFO                 : Advanced Video Codec
Format profile              : High@L4.1
Format settings, CABAC      : Yes
Format settings, ReFrames   : 4 frames
Codec ID                    : V_MPEG4/ISO/AVC
Duration                    : 1h 57mn
Bit rate                    : 900 Kbps
Width                       : 1 264 pixels
Height                      : 528 pixels
Display aspect ratio        : 2.40:1
Frame rate mode             : Constant
Frame rate                  : 23.976 (24000/1001) fps
Color space                 : YUV
Chroma subsampling          : 4:2:0
Bit depth                   : 8 bits
Scan type                   : Progressive
Bits/(Pixel*Frame)          : 0.056
Stream size                 : 759 MiB (58%)
Writing library             : x264 core 142 r2479 dd79a61
Color range                 : Limited
Color primaries             : BT.709
Transfer characteristics    : BT.709
Matrix coefficients         : BT.709

Audio
ID                          : 2
Format                      : AC-3
Format/INFO                 : Audio Coding 3
Mode extension              : CM (complete main)
Format settings, Endianness : Big
Codec ID                    : A_AC3
Duration                    : 1h 57mn
Bit rate mode               : Constant
Bit rate                    : 640 Kbps
Channel(s)                  : 6 channels
Channel positions           : Front: L C R, Side: L R, LFE
Sampling rate               : 48.0 KHz
Frame rate                  : 31.250 fps (1536 spf)
Compression mode            : Lossy
Stream size                 : 540 MiB (41%)
Title                       : DD 5.1 @ 640 kbps
Language                    : Russian
Default                     : Yes
Forced                      : No

Text
ID                          : 3
Format                      : UTF-8
Codec ID                    : S_TEXT/UTF8
Codec ID/INFO               : UTF-8 Plain Text
Duration                    : 1h 51mn
Bit rate                    : 28 bps
Count of elements           : 824
Stream size                 : 22.9 KiB (0%)
Default                     : Yes
Forced                      : No
*censored*

 
Pliki
 [Pokaż/ukryj Pliki]
(6) files
Ocena N/A
Tracker
Podobne


Komentarze


Brak Komentarzy!!!