User:      Has│o:     



User Info
User:
Has│o:
Stwˇrz kontoOdzyskiwanie has│a


Kategorie


The Legend of Tarzan 2016 [HDTS][XviD-diakonfrost][ENG]


Kategoria: Filmy DivX/XviD

Gatunek: Przygodowy

Doda│:  PanFrost
Data dodania: 
16-07-2016
Rozmiar: 1.48 GB

Seedˇw: 0
Peerˇw: 0
Uko˝czone: ---

Pobrany: 154

Kondycja:

Pobierz


Originalny tytu┬│
"The Legend of Tarzan"
Czas:109 min
Rok produkcji:2016
Kraj:USA
Jêzyk: English
Re┬┐yseriaavid Yates
Kategoria:Akcja,Przygoda,Dramat


Mijaj┬▒ lata, od kiedy Tarzan (Skarsg├ąrd) opu┬Âci┬│ afryka├▒sk┬▒ d┬┐ungl├¬ na rzecz cywilizowanego ┬┐ycia w Londynie. Jako John Clayton III, Lord Greystoke decyduje si├¬ wr├│ci├Ž do Konga, gdzie ma pe┬│ni├Ž funkcj├¬ emisariusza rz┬▒du z misj┬▒ handlow┬▒. Nie zdaje sobie jednak sprawy z tego, ┬┐e jest pionkiem w ┬Âmiertelnie niebezpiecznej grze targanego wol┬▒ zemsty, chciwego kapitana Leona Roma z Belgii (Waltz). Okazuje si├¬, ┬┐e osoby stoj┬▒ce za zab├│jczym spiskiem nie maj┬▒ poj├¬cia, co rozp├¬ta si├¬ za ich spraw┬▒.


Alexander Skarsg├ąrd,
Christoph Waltz,
Margot Robbie,
Samuel L. Jackson

Video
ID                          : 0
Format                      : MPEG-4 Visual
Format profile              : Advanced Simple@L5
Format settings, BVOP       : 2
Format settings, QPel       : No
Format settings, GMC        : No warppoints
Format settings, Matrix     : Default (H.263)
Muxing mode                 : Packed bitstream
Codec ID                    : XVID
Codec ID/Hint               : XviD
Duration                    : 1h 45mn
Bit rate                    : 1 786 Kbps
Width                       : 720 pixels
Height                      : 304 pixels
Display aspect ratio        : 2.35:1
Frame rate                  : 30.000 fps
Color space                 : YUV
Chroma subsampling          : 4:2:0
Bit depth                   : 8 bits
Scan type                   : Progressive
Compression mode            : Lossy
Bits/(Pixel*Frame)          : 0.272
Stream size                 : 1.32 GiB (90%)
Writing library             : XviD 64

Audio
ID                          : 1
Format                      : MPEG Audio
Format version              : Version 1
Format profile              : Layer 3
Mode                        : Joint stereo
Mode extension              : MS Stereo
Codec ID                    : 55
Codec ID/Hint               : MP3
Duration                    : 1h 45mn
Bit rate mode               : Constant
Bit rate                    : 192 Kbps
Channel(s)                  : 2 channels
Sampling rate               : 48.0 KHz
Compression mode            : Lossy
Stream size                 : 145 MiB (10%)
Alignment                   : Aligned on interleaves
Interleave, duration        : 33 ms (1.00 video frame)
Interleave, preload duratio : 504 ms
ScreenyScreen 1: ? Screen 1: ? Screen 1: ? 
Pliki
 [Poka┐/ukryj Pliki]
(2) files
Ocena N/A
Tracker
Podobne


Komentarze


Brak Komentarzy!!!