User:      Hasło:     



User Info
User:
Hasło:
Stwórz kontoOdzyskiwanie hasła


Kategorie


Piła: Dziedzictwo - Jigsaw *2017* [1080p WEB-DL DD5 1 H264-FGT] [ENG]


Kategoria: Filmy x264/h264

Gatunek: Horror

Dodał:  Dezerter33
Data dodania: 
10-01-2018
Rozmiar: 3.21 GB

Seedów: 0
Peerów: 0
Ukończone: ---

Pobrany: 20

Kondycja:

Pobierz



Produkcja: Kanada, USA
Gatunek: Horror
Premiera: 27 października 2017 (Polska), 20 października 2017 (świat)
Reżyseria: Peter Spierig
Scenariusz: Pete Goldfinger, Josh Stolberg




Miasto paraliżuje strach, gdy policja odkrywa kolejne zmasakrowane zwłoki. Media rozdmu*censored*ą teorię o seryjnym mordercy, ale detektywom nie udaje się ustalić żadnego wspólnego mianownika, który łączyłby wszystkie zabójstwa. Aż do dnia, gdy na jaw wyjdzie jeden makabryczny szczegół, który rzuci podejrzenie na dobrze znanego policji mordercę Johna Kramera. Problem w tym, że Kramer nie żyje...




Matt Passmore .... Logan Nelson
Tobin Bell .... Jigsaw / John Kramer
Callum Keith Rennie .... Detektyw Halloran
Hannah Emily Anderson .... Eleanor Bonneville
Clé Bennett .... Detektyw Keith Hunt
Laura Vandervoort .... Anna
Paul Braunstein .... Ryan
Mandela Van Peebles .... Mitch




Video
ID : 1
Format : AVC
Format/Info : Advanced Video Codec
Format profile : High@L4
Format settings : CABAC / 5 Ref Frames
Format settings, CABAC : Yes
Format settings, ReFrames : 5 frames
Codec ID : V_MPEG4/ISO/AVC
Duration : 1 h 32 min
Bit rate : 4 593 kb/s
Width : 1 920 pixels
Height : 804 pixels
Display aspect ratio : 2.40:1
Frame rate mode : Constant
Frame rate : 23.976 (23976/1000) FPS
Color space : YUV
Chroma subsampling : 4:2:0
Bit depth : 8 bits
Scan type : Progressive
Bits/(Pixel*Frame) : 0.124
Stream size : 2.96 GiB (92%)
Title : Jigsaw.2017.1080p.WEB-DL.DD5.1.H264-FGT
Language : English
Default : Yes
Forced : No
Color range : Limited
Color primaries : BT.709
Transfer characteristics : BT.709
Matrix coefficients : BT.709

Audio
ID : 2
Format : AC-3
Format/Info : Audio Coding 3
Codec ID : A_AC3
Duration : 1 h 32 min
Bit rate mode : Constant
Bit rate : 384 kb/s
Channel(s) : 6 channels
Channel positions : Front: L C R, Side: L R, LFE
Sampling rate : 48.0 kHz
Frame rate : 31.250 FPS (1536 SPF)
Bit depth : 16 bits
Compression mode : Lossy
Delay relative to video : -43 ms
Stream size : 253 MiB (8%)
Title : Jigsaw.2017.1080p.WEB-DL.DD5.1.H264-FGT
Language : English
Service kind : Complete Main
Default : Yes
Forced : No

Text
ID : 3
Format : UTF-8
Codec ID : S_TEXT/UTF8
Codec ID/Info : UTF-8 Plain Text
Duration : 1 h 24 min
Bit rate : 57 b/s
Count of elements : 1193
Stream size : 35.1 KiB (0%)
Language : English
Default : Yes
Forced : No
Pliki
 [Pokaż/ukryj Pliki]
(3) files
Ocena N/A
Tracker
Podobne


Komentarze


Brak Komentarzy!!!