User:      Hasło:     





User Info
User:
Hasło:
Stwórz kontoOdzyskiwanie hasła


Kategorie


The Strain S04E03 - One Shot [720p WEB-DL H 264 DD5 1] [Napisy PL]


Kategoria: Seriale Zagraniczne

Gatunek: 

Dodał: 
Data dodania: 
11-08-2017
Rozmiar: 1.28 GB

Seedów: 15
Peerów: 4
Ukończone: 117

Pobrany: 17

Kondycja:

Pobierz





produkcja: USA
gatunek: Horror, Dramat, Fantasy
scenariusz: Guillermo del Toro, Chuck Hogan
reżyseria: J. Miles Dale, Kevin Dowling, Jennifer Lynch
zdjęcia: Miroslaw Baszak
muzyka: Ramin Djawadi
czas trwania: ok. 42 min.



Po wylądowaniu Boeinga na lotnisku Kennedy'ego załoga samolotu nie odpowiada na wezwania radiostacji. Zaangażowani w akcję ratunkową epidemiolodzy odkrywają, że poza czterema pasażerami cała załoga jest martwa a na pokładzie znajduje się trumna. Wkrótce grupa naukowców wraz z dr Ephraimem Goodweatherem na czele mierzy się z nowym, nieznanym dotąd wirusem, który zmienia ludzi w żądne krwi stworzenia.



Corey Stoll - Ephraim Goodweather
Max Charles - Zach Goodweather
Natalie Brown - Kelly Goodweather
Jonathan Hyde - Eldritch Palmer
Robin Atkin Downes - The Master
Anthony Grant Lake - Strigoi
David Bradley - Abraham Setrakian
Richard Sammel - Thomas Eichorst
Kevin Durand - Vasiliy Fet
Ruta Gedmintas - Dutch Velders



Format : Matroska
Format version : Version 4 / Version 2
File size : 1.28 GiB
Duration : 42mn 15s
Overall bit rate : 4 344 Kbps
Encoded date : UTC 2017-08-09 19:47:30

Video
ID : 1
Format : AVC
Format/INFO : Advanced Video Codec
Format profile : High@L3.1
Format settings, CABAC : No
Format settings, ReFrames : 2 frames
Codec ID : V_MPEG4/ISO/AVC
Duration : 42mn 15s
Bit rate : 3 874 Kbps
Width : 1 280 pixels
Height : 720 pixels
Display aspect ratio : 16:9
Frame rate mode : Constant
Frame rate : 23.976 fps
Color space : YUV
Chroma subsampling : 4:2:0
Bit depth : 8 bits
Scan type : Progressive
Bits/(Pixel*Frame) : 0.175
Stream size : 1.14 GiB (89%)
Color primaries : BT.709
Transfer characteristics : BT.709
Matrix coefficients : BT.709

Audio
ID : 2
Format : AC-3
Format/INFO : Audio Coding 3
Mode extension : CM (complete main)
Format settings, Endianness : Big
Codec ID : A_AC3
Duration : 42mn 15s
Bit rate mode : Constant
Bit rate : 384 Kbps
Channel(s) : 6 channels
Channel positions : Front: L C R, Side: L R, LFE
Sampling rate : 48.0 KHz
Bit depth : 16 bits
Compression mode : Lossy
Stream size : 116 MiB (9%)
Language : English

Text
ID : 3
Format : UTF-8
Codec ID : S_TEXT/UTF8
Codec ID/INFO : UTF-8 Plain Text
Language : Polish*censored*

 
Pliki
 [Pokaż/ukryj Pliki]
(2) files
Ocena N/A
Tracker
 [Pokaż/ukryj Trackery] 
Podobne


Komentarze


Brak Komentarzy!!!