User:      Hasło:     



User Info
User:
Hasło:
Stwórz kontoOdzyskiwanie hasła


Kategorie


La La Land *2016* [1080p WEB-DL DD5 1 H264-FGT] [ENG]


Kategoria: Filmy x264/h264

Gatunek: Komedia rom.

Dodał:  Dezerter33
Data dodania: 
12-04-2017
Rozmiar: 4.43 GB

Seedów: 115
Peerów: 27
Ukończone: 60579

Pobrany: 52

Kondycja:

Pobierz



Produkcja: USA
Gatunek: Musical, Romans
Premiera: 20 stycznia 2017 (Polska), 31 sierpnia 2016 (świat)
Reżyseria: Damien Chazelle
Scenariusz: Damien Chazelle




Mia jest początkującą aktorką, która w oczekiwaniu na szansę pracuje jako kelnerka. Sebastian to muzyk jazzowy, który zamiast nagrywać płyty, gra do kotleta w podrzędnej knajpce. Gdy drogi tych dwojga przetną się, połączy ich wspólne pragnienie, by zacząć wreszcie robić to co kochają. Miłość dodaje im sił, ale gdy kariery zaczynają się wreszcie układać, coraz mniej jest czasu i sił dla siebie nawzajem. Czy uda im się ocalić uczucie, nie rezygnując z marzeń?




★ Ryan Gosling .... Sebastian
★ Emma Stone .... Mia
★ John Legend .... Keith
★ Rosemarie DeWitt .... Laura
★ Finn Wittrock .... Greg
★ Callie Hernandez .... Tracy
★ Sonoya Mizuno .... Caitlin
★ Jessica Rothe .... Alexis




Video
ID : 1
Format : AVC
Format/Info : Advanced Video Codec
Format profile : High@L4
Format settings, CABAC : Yes
Format settings, ReFrames : 5 frames
Codec ID : V_MPEG4/ISO/AVC
Duration : 2h 8mn
Bit rate : 4 465 Kbps
Width : 1 912 pixels
Height : 744 pixels
Display aspect ratio : 2.570
Frame rate mode : Constant
Frame rate : 23.976 (24000/1001) fps
Color space : YUV
Chroma subsampling : 4:2:0
Bit depth : 8 bits
Scan type : Progressive
Bits/(Pixel*Frame) : 0.131
Stream size : 4.00 GiB (90%)
Title : La.La.Land.2016.1080p.WEB-DL.DD5.1.H264-FGT
Language : English
Default : Yes
Forced : No
Color range : Limited
Color primaries : BT.709
Transfer characteristics : BT.709
Matrix coefficients : BT.709

Audio
ID : 2
Format : AC-3
Format/Info : Audio Coding 3
Mode extension : CM (complete main)
Format settings, Endianness : Big
Codec ID : A_AC3
Duration : 2h 8mn
Bit rate mode : Constant
Bit rate : 384 Kbps
Channel(s) : 6 channels
Channel positions : Front: L C R, Side: L R, LFE
Sampling rate : 48.0 KHz
Frame rate : 31.250 fps (1536 spf)
Compression mode : Lossy
Stream size : 352 MiB (8%)
Title : La.La.Land.2016.1080p.WEB-DL.DD5.1.H264-FGT
Language : English
Default : Yes
Forced : No

Text
ID : 3
Format : UTF-8
Codec ID : S_TEXT/UTF8
Codec ID/Info : UTF-8 Plain Text
Language : English
Default : Yes
Forced : No
Pliki
 [Pokaż/ukryj Pliki]
(4) files
Ocena N/A
Tracker
Podobne


Komentarze


Brak Komentarzy!!!