User:      Hasło:     



User Info
User:
Hasło:
Stwórz kontoOdzyskiwanie hasła


Kategorie


The Commuter *2018* [720p] [WEBRip] [XviD] [AC3] [FGT] [ENG]


Kategoria: Filmy DivX/XviD

Gatunek: Thrillery / Kryminalne

Dodał:  Morus12
Data dodania: 
19-04-2018
Rozmiar: 2.55 GB

Seedów: 0
Peerów: 0
Ukończone: ---

Pobrany: 3

Kondycja:

Pobierz






Produkcja: USA, Wielka Brytania
Gatunek: Thriller
Premiera: 12 stycznia 2018 (Polska), 10 stycznia 2018 (świat)
Reżyseria: Jaume Collet-Serra
Scenariusz: Byron Willinger, Philip de Blasi



Dla agenta ubezpieczeniowego Michaela Woolricha każdy dzień wygląda tak samo - praca i powrót pociągiem do domu. Wszystko zmienia się, gdy w czasie jednej z podróży poznaje tajemniczą kobietę. Nieznajoma, która wydaje się wiedzieć o Michaelu dosłownie wszystko, zleca mu niezwykłe zadanie. Zanim pociąg dotrze do celu, mężczyzna ma zlokalizować i wskazać osobę, która tego dnia nie powinna się w nim znajdować. Jeśli tego nie zrobi, ucierpi zarówno on sam, jego rodzina, jak i  pozostali współpasażerowie. Nie mając wyboru, Michael postanawia rozwiązać zagadkę. Z każdą minutą i przebytym kilometrem stawka rośnie, a mężczyzna przekonuje się, że stał się pionkiem w szalenie niebezpiecznej intrydze.



? Liam Neeson .... Michael MacCauley
? Vera Farmiga .... Joanna
? Patrick Wilson .... Alex Murphy
? Jonathan Banks .... Walt
? Sam Neill .... Kapitan Hawthorne
? Elizabeth McGovern .... Karen MacCauley
? Killian Scott .... Dylan
? Shazad Latif .... Vince



Video
ID                                       : 0
Format                                   : MPEG-4 Visual
Format profile                           : Simple@L5
Format settings, BVOP                    : No
Format settings, QPel                    : No
Format settings, GMC                     : No warppoints
Format settings, Matrix                  : Default (H.263)
Codec ID                                 : XVID
Codec ID/Hint                            : XviD
Duration                                 : 1 h 44 min
Bit rate                                 : 3 102 kb/s
Width                                    : 1 280 pixels
Height                                   : 536 pixels
Display aspect ratio                     : 2.40:1
Frame rate                               : 23.976 (23976/1000) FPS
Color space                              : YUV
Chroma subsampling                       : 4:2:0
Bit depth                                : 8 bits
Scan type                                : Progressive
Compression mode                         : Lossy
Bits/(Pixel*Frame)                       : 0.189
Stream size                              : 2.26 GiB (89%)
Writing library                          : Lavc58.1.100

Audio
ID                                       : 1
Format                                   : AC-3
Format/INFO                              : Audio Coding 3
Codec ID                                 : 2000
Duration                                 : 1 h 44 min
Bit rate mode                            : Constant
Bit rate                                 : 384 kb/s
Channel(s)                               : 6 channels
Channel positions                        : Front: L C R, Side: L R, LFE
Sampling rate                            : 48.0 kHz
Frame rate                               : 31.250 FPS (1536 SPF)
Bit depth                                : 16 bits
Compression mode                         : Lossy
Stream size                              : 287 MiB (11%)
Alignment                                : Aligned on interleaves
Interleave, duration                     : 42  ms (1.00 video frame)
Interleave, preload duration             : 512  ms
Service kind                             : Complete Main


https://cdn.imagecurl.com/images/49053654820927558505.png
https://cdn.imagecurl.com/images/06410543838282257804.png
https://cdn.imagecurl.com/images/19503672735224312421.png

*censored*

 
Pliki
 [Pokaż/ukryj Pliki]
(2) files
Ocena N/A
Tracker
Podobne


Komentarze


Brak Komentarzy!!!