User:      Hasło:     



User Info
User:
Hasło:
Stwórz kontoOdzyskiwanie hasła


Kategorie


Dom z papieru - La casa de papel - Money Heist [Sezon 1] [S01] [SPANISH 1080p NF WEBRip DDP2 0 x264-Mooi1990] [Napisy PL]


Kategoria: Seriale Zagraniczne


Dodał:  Morus12
Data dodania: 
15-03-2018
Rozmiar: 14.84 GB

Seedów: 0
Peerów: 0
Ukończone: ---

Pobrany: 22

Kondycja:

Pobierz






http://www.imdb.com/title/tt6468322/

http://www.filmweb.pl/serial/Dom+z+papieru-2017-792826

Ośmioro przestępców barykaduje się z zakładnikami w hiszpańskiej mennicy. W międzyczasie geniusz wśród złodziei manipuluje policją, by zrealizować swój plan



Ścieżka nr 5 polskie napisy.

Video
ID : 1
Format : AVC
Format/INFO : Advanced Video Codec
Format profile : Main@L4
Format settings : CABAC / 3 Ref Frames
Format settings, CABAC : Yes
Format settings, ReFrames : 3 frames
Codec ID : V_MPEG4/ISO/AVC
Duration : 47 min 56 s
Bit rate mode : Variable
Bit rate : 4 020 kb/s
Maximum bit rate : 6 030 kb/s
Width : 1 920 pixels
Height : 1 080 pixels
Display aspect ratio : 16:9
Frame rate mode : Constant
Frame rate : 25.000 FPS
Color space : YUV
Chroma subsampling : 4:2:0
Bit depth : 8 bits
Scan type : Progressive
Bits/(Pixel*Frame) : 0.078
Stream size : 1.31 GiB (95%)
Writing library : x264 core 148

Audio
ID : 2
Format : E-AC-3
Format/INFO : Enhanced Audio Coding 3
Codec ID : A_EAC3
Duration : 47 min 56 s
Bit rate mode : Constant
Bit rate : 128 kb/s
Channel(s) : 2 channels
Channel positions : Front: L R
Sampling rate : 48.0 kHz
Frame rate : 187.500 FPS (256 SPF)
Compression mode : Lossy
Stream size : 43.9 MiB (3%)
Language : Spanish

Text #1
ID : 3
Format : UTF-8
Codec ID : S_TEXT/UTF8
Codec ID/INFO : UTF-8 Plain Text
Title : English
Language : English
Default : Yes
Forced : Yes

Text #2
ID : 4
Format : UTF-8
Codec ID : S_TEXT/UTF8
Codec ID/INFO : UTF-8 Plain Text
Title : European Spanish
Language : Spanish
Default : No
Forced : No

Text #3
ID : 5
Format : UTF-8
Codec ID : S_TEXT/UTF8
Codec ID/INFO : UTF-8 Plain Text
Title : French
Language : French
Default : No
Forced : No

Text #4
ID : 6
Format : UTF-8
Codec ID : S_TEXT/UTF8
Codec ID/INFO : UTF-8 Plain Text
Title : German
Language : German
Default : No
Forced : No


Text #5
ID : 7
Format : UTF-8
Codec ID : S_TEXT/UTF8
Codec ID/INFO : UTF-8 Plain Text
Title : Polish
Language : Polish
Default : No
Forced : No




*censored*

 
Pliki
 [Pokaż/ukryj Pliki]
(14) files
Ocena N/A
Tracker
Podobne


Komentarze




mandolyna14/07/2018 10.54.48
napisy są po angielsku