User:      Hasło:     



User Info
User:
Hasło:
Stwórz kontoOdzyskiwanie hasła


Kategorie


Jurassic World: Upadłe królestwo / Jurassic World: Fallen Kingdom (2018) [720p] [WEB-DL] [H264 AC3] [EVO] [ENG] [Napisy PL]


Kategoria: Filmy x264/h264

Gatunek: Akcja / Sensacyjny

Dodał:  RIAS
Data dodania: 
05-09-2018
Rozmiar: 3.99 GB

Seedów: 15
Peerów: 5
Ukończone: 2312

Pobrany: 35

Kondycja:

Pobierz



Produkcja: USA
Gatunek: Przygodowy, Sci-Fi
Premiera: 8 czerwca 2018 (Polska), 21 maja 2018 (świat)
Reżyseria: J.A. Bayona
Scenariusz: Derek Connolly, Colin Trevorrow


Napisy


Code
Polski, Bułgarski, Hiszpański



Minęły cztery lata, od kiedy luksusowy park rozrywki Jurassic World został zdewastowany przez dinozaury i zamknięty. Isla Nublar jest dziś opuszczona przez ludzi, a dinozaury, które przetrwały, próbują poradzić sobie w dżungli same. Kiedy uśpiony dotąd wulkan budzi się do życia, Owen (Chris Pratt) i Claire (Bryce Dallas Howard) za wszelką cenę chcą uratować pozostałe przy życiu stwory. Owen próbuje odnaleźć Blue, zaginionego raptora, którego wychował, dla Claire ocalenie dinozaurów staje się najważniejszą misją. Kiedy przybywają na wyspę, wulkan zaczyna już wyrzucać z siebie deszcz lawy; Claire i Owen odkrywają spisek mający przywrócić Ziemię do stanu, którego nie widzieliśmy od czasów prehistorycznych.



Chris Pratt .... Owen Grady
Bryce Dallas Howard .... Claire Dearing
Rafe Spall .... Eli Mills
Justice Smith .... Franklin Webb
Daniella Pineda .... Zia Rodriguez
James Cromwell .... Benjamin Lockwood
Toby Jones .... Pan Eversol
Ted Levine .... Ken Wheatley





Cytuj:
General
Complete name : Jurassic.World.2018.720p.WEB-DL.H264.AC3-EVO.mkv
Format : Matroska
Format version : Version 4 / Version 2
File size : 3.99 GiB
Duration : 2h 8mn
Overall bit rate : 4 453 Kbps
Encoded date : UTC 2018-09-05 11:40:43
Writing application : mkvmerge v9.9.0 ('Pick Up') 32bit
Writing library : libebml v1.3.4 + libmatroska v1.4.5

Video
ID : 1
Format : AVC
Format/Info : Advanced Video Codec
Format profile : Main@L3.1
Format settings, CABAC : No
Format settings, ReFrames : 2 frames
Codec ID : V_MPEG4/ISO/AVC
Duration : 2h 8mn
Bit rate : 4 067 Kbps
Width : 1 280 pixels
Height : 536 pixels
Display aspect ratio : 2.40:1
Frame rate mode : Constant
Frame rate : 23.976 (24000/1001) fps
Color space : YUV
Chroma subsampling : 4:2:0
Bit depth : 8 bits
Scan type : Progressive
Bits/(Pixel*Frame) : 0.247
Stream size : 3.64 GiB (91%)
Language : English
Default : Yes
Forced : No
Color range : Limited
Color primaries : BT.709
Transfer characteristics : BT.709
Matrix coefficients : BT.709

Audio
ID : 2
Format : AC-3
Format/Info : Audio Coding 3
Mode extension : CM (complete main)
Format settings, Endianness : Big
Codec ID : A_AC3
Duration : 2h 8mn
Bit rate mode : Constant
Bit rate : 384 Kbps
Channel(s) : 6 channels
Channel positions : Front: L C R, Side: L R, LFE
Sampling rate : 48.0 KHz
Frame rate : 31.250 fps (1536 spf)
Compression mode : Lossy
Stream size : 352 MiB (9%)
Language : English
Default : Yes
Forced : No

Text #1
ID : 3
Format : UTF-8
Codec ID : S_TEXT/UTF8
Codec ID/Info : UTF-8 Plain Text
Duration : 1h 56mn
Bit rate : 60 bps
Count of elements : 876
Stream size : 52.0 KiB (0%)
Language : Bulgarian
Default : Yes
Forced : No

Text #2
ID : 4
Format : UTF-8
Codec ID : S_TEXT/UTF8
Codec ID/Info : UTF-8 Plain Text
Duration : 1h 56mn
Bit rate : 43 bps
Count of elements : 1294
Stream size : 37.5 KiB (0%)
Language : Spanish
Default : No
Forced : No

Text #3
ID : 5
Format : UTF-8
Codec ID : S_TEXT/UTF8
Codec ID/Info : UTF-8 Plain Text
Duration : 1h 56mn
Bit rate : 40 bps
Count of elements : 1041
Stream size : 34.9 KiB (0%)
Language : Polish
Default : No
Forced : No










Pliki
 [Pokaż/ukryj Pliki]
(2) files
Ocena N/A
Tracker
Podobne


Komentarze




cypis08/09/2018 22.15.26
no jak po polsku pisze sie cyrylica no to napisy sa pl lipa