User:      Hasło:     



User Info
User:
Hasło:
Stwórz kontoOdzyskiwanie hasła


Kategorie


Brooklyn Nine-Nine S05E15 - The Puzzle Master [720p AMZN WEB-DL H 264 DD5 1] [Napisy PL]


Kategoria: Seriale Zagraniczne


Dodał:  Morus12
Data dodania: 
16-04-2018
Rozmiar: 520.85 MB

Seedów: 0
Peerów: 1
Ukończone: 22

Pobrany: 1

Kondycja:

Pobierz






produkcja: USA
gatunek: Komedia
reżyseria: Phil Lord, Christopher Miller, Beth McCarthy-Miller
scenariusz: Daniel J. Goor, Michael Schur
zdjęcia: Barry Peterson , Giovani Lampassi
muzyka: Dan Marocco
czas trwania: ok. 22 min.



Serial komediowy opowiadający o zróżnicowanej grupie detektywów pracujących na jednym z posterunków w Nowym Jorku, którzy nigdy nie brali na poważnie swojej pracy. Wszystko zmienia się, gdy pojawia się nowy dowódca - kapitan Ray Holt. Komendant wierzy w zasady i dyscyplinę - dwie rzeczy, których dotąd brakowało na posterunku.



Andy Samberg - Jake Peralta
Terry Crews - Terry Jeffords
Joe Lo Truglio - Charles Boyle
Andre Braugher - Ray Holt
Dirk Blocker - Hitchcock
Melissa Fumero - Amy Santiago
Joel McKinnon Miller - Scully
Stephanie Beatriz - Rosa Diaz



Format : Matroska
Format version : Version 4 / Version 2
File size : 521 MiB
Duration : 21 min 38 s
Overall bit rate mode : Variable
Overall bit rate : 3 366 kb/s
Encoded date : UTC 2018-04-13 15:01:15

Video
ID : 1
Format : AVC
Format/INFO : Advanced Video Codec
Format profile : High@L3.1
Format settings, CABAC : Yes
Format settings, RefFrames : 5 frames
Codec ID : V_MPEG4/ISO/AVC
Duration : 21 min 38 s
Bit rate mode : Variable
Bit rate : 2 724 kb/s
Maximum bit rate : 4 500 kb/s
Width : 1 280 pixels
Height : 720 pixels
Display aspect ratio : 16:9
Frame rate mode : Constant
Frame rate : 23.976 (24000/1001) FPS
Color space : YUV
Chroma subsampling : 4:2:0
Bit depth : 8 bits
Scan type : Progressive
Bits/(Pixel*Frame) : 0.123
Stream size : 421 MiB (81%)
Color range : Limited
Color primaries : BT.709
Transfer characteristics : BT.709
Matrix coefficients : BT.709

Audio
ID : 2
Format : E-AC-3
Format/INFO : Enhanced Audio Coding 3
Format settings, Endianness : Big
Codec ID : A_EAC3
Duration : 21 min 38 s
Bit rate mode : Constant
Bit rate : 640 kb/s
Channel(s) : 6 channels
Channel positions : Front: L C R, Side: L R, LFE
Sampling rate : 48.0 kHz
Frame rate : 187.500 FPS (256 SPF)
Compression mode : Lossy
Stream size : 99.0 MiB (19%)
Language : English
Service kind : Complete Main
Default : Yes
Forced : Yes

Text
ID : 3
Format : UTF-8
Codec ID : S_TEXT/UTF8
Codec ID/INFO : UTF-8 Plain Text
Duration : 21 min 30 s
Bit rate : 133 b/s
Count of elements : 587
Stream size : 21.0 KiB (0%)
Language : Polish
Default : Yes
Forced : Yes*censored*

 
Pliki
 [Pokaż/ukryj Pliki]
(2) files
Ocena N/A
Tracker
 [Pokaż/ukryj Trackery] 
Podobne


Komentarze


Brak Komentarzy!!!