User:      Hasło:     



User Info
User:
Hasło:
Stwórz kontoOdzyskiwanie hasła


Kategorie


The Secret Life of Pets *2016* [720P HDTS x264 HQ Hive-CM8] [ENG]


Kategoria: Filmy TS/CAM

Gatunek: Anime / Bajka

Dodał:  Dezerter33
Data dodania: 
27-07-2016
Rozmiar: 2.64 GB

Seedów: 1653
Peerów: 1053
Ukończone: 16118

Pobrany: 57

Kondycja:

Pobierz



Produkcja: USA
Gatunek: Animacja, Komedia
Premiera: 23 września 2016 (Polska), 24 czerwca 2016 (świat)
Reżyseria: Chris Renaud
Scenariusz: Cinco Paul, Ken Daurio, Brian Lynch




Jeżeli ktoś myśli, że kiedy zostawia swoje ukochane zwierzaki w domu, one zajmują się wyłącznie tęsknotą za nim, cóż, jest w błędzie. Zwierzaki prowadzą swoje własne, osobne życie, pełne przygód, intryg i zabawy. A ich główne zmartwienie polega na tym, aby ludzie nie dowiedzieli się o ich sekretnych poczynaniach. Kiedy tylko zamykamy za sobą drzwi& wreszcie mogą być sobą.




Louis C.K. .... Max (głos)
Eric Stonestreet .... Duke (głos)
Kevin Hart .... Snowball (głos)
Jenny Slate .... Gidget (głos)
Ellie Kemper .... Katie (głos)
Lake Bell .... Chloe (głos)
Dana Carvey .... jako:
Hannibal Buress ....




General
Complete name : The.Secret.Life.of.Pets.2016.720P.HDTS.x264.HQ.Hive-CM8.mkv
Format : Matroska
Format version : Version 2
File size : 2.58 GiB
Duration : 1h 23mn
Overall bit rate mode : Variable
Overall bit rate : 4 428 Kbps
Encoded date : UTC 2016-07-21 23:09:37
Writing application : mkvmerge v5.6.0 ('Kenya Kane') built on May 27 2012 16:44:04
Writing library : libebml v1.2.3 + libmatroska v1.3.0

Video
ID : 1
Format : AVC
Format/Info : Advanced Video Codec
Format profile : High@L3.1
Format settings, CABAC : Yes
Format settings, ReFrames : 4 frames
Format settings, GOP : M=4, N=33
Muxing mode : Header stripping
Codec ID : V_MPEG4/ISO/AVC
Duration : 1h 23mn
Bit rate mode : Variable
Bit rate : 3 892 Kbps
Maximum bit rate : 8 000 Kbps
Width : 1 280 pixels
Height : 672 pixels
Display aspect ratio : 1.905
Frame rate mode : Constant
Frame rate : 25.000 fps
Standard : PAL
Color space : YUV
Chroma subsampling : 4:2:0
Bit depth : 8 bits
Scan type : Progressive
Bits/(Pixel*Frame) : 0.181
Stream size : 2.26 GiB (88%)
Language : English
Default : Yes
Forced : No
Color primaries : BT.709
Transfer characteristics : BT.709
Matrix coefficients : BT.709
Color range : Limited

Audio
ID : 2
Format : AC-3
Format/Info : Audio Coding 3
Mode extension : CM (complete main)
Format settings, Endianness : Big
Muxing mode : Header stripping
Codec ID : A_AC3
Duration : 1h 23mn
Bit rate mode : Constant
Bit rate : 448 Kbps
Channel(s) : 2 channels
Channel positions : Front: L R
Sampling rate : 48.0 KHz
Bit depth : 16 bits
Compression mode : Lossy
Stream size : 267 MiB (10%)
Language : English
Default : Yes
Forced : No
Pliki
 [Pokaż/ukryj Pliki]
(4) files
Ocena N/A
Tracker
Podobne


Komentarze


Brak Komentarzy!!!