User:      Hasło:     



User Info
User:
Hasło:
Stwórz kontoOdzyskiwanie hasła


Kategorie


The Walking Dead S08E08 How It's Gotta Be [1080p WEB DL H 264 AC3] [Lektor PL] [ENG+Napisy PL]


Kategoria: Seriale Zagraniczne


Dodał:  Morus12
Data dodania: 
13-12-2017
Rozmiar: 2.53 GB

Seedów: 36
Peerów: 9
Ukończone: 117

Pobrany: 14

Kondycja:

Pobierz


Info:
produkcja: USA
gatunek: Dramat, Horror, Thriller
reżyseria: Greg Nicotero, Michael E. Satrazemis, Larry Teng
scenariusz: Frank Darabont, Robert Kirkman, Charlie Adlard, Tony Moore
zdjęcia: Duane Manwiller
muzyka: Bear McCreary
czas trwania: ok. 62 min.
Opis:
Serial opowiada o czasie następującym po pandemicznej apokalipsie, po której świat opanowały zombie. Szeryf Rick Grimes podróżuje wraz z rodziną i z garstką ocalałych, w bezustannym poszukiwaniu bezpiecznego schronienia. Ciągła presja oraz codzienne zmagania się z zagrożeniem i śmiercią zbierają krwawe żniwo, popychając wielu ku otchłani najgłębszego ludzkiego okrucieństwa. W trakcie walki o przeżycie swojej rodziny, Rick odkrywa, że wszechogarniający strach ocalałych może być dużo bardziej niebezpieczny, niż przemierzające świat zombie.
Obsada:
Andrew Lincoln - Rick Grimes
Chandler Riggs - Carl Grimes
Danai Gurira - Michonne
Lauren Cohan - Maggie Greene
Norman Reedus - Daryl Dixon
Melissa McBride - Carol Peletier
Lennie James - Morgan Jones
Christian Serratos - Rosita Espinosa
Jeffrey Dean Morgan - Negan
Dane techniczne:
Format : Matroska
Format version : Version 4 / Version 2
File size : 2.53 GiB
Duration : 1 h 2 min
Overall bit rate : 5 827 kb/s
Encoded date : UTC 2017-12-12 14:51:55
Video
ID : 1
Format : AVC
Format/Info : Advanced Video Codec
Format profile : [email protected]
Format settings, CABAC : Yes
Format settings, RefFrames : 4 frames
Codec ID : V_MPEG4/ISO/AVC
Duration : 1 h 2 min
Bit rate : 5 056 kb/s
Width : 1 916 pixels
Height : 1 076 pixels
Display aspect ratio : 16:9
Frame rate mode : Constant
Frame rate : 23.976 (24000/1001) FPS
Color space : YUV
Chroma subsampling : 4:2:0
Bit depth : 8 bits
Scan type : Progressive
Bits/(Pixel*Frame) : 0.102
Stream size : 2.20 GiB (87%)
Color range : Limited
Color primaries : BT.709
Transfer characteristics : BT.709
Matrix coefficients : BT.709
Audio 1
ID : 2
Format : AC-3
Format/Info : Audio Coding 3
Format settings, Endianness : Big
Codec ID : A_AC3
Duration : 1 h 2 min
Bit rate mode : Constant
Bit rate : 384 kb/s
Channel(s) : 2 channels
Channel positions : Front: L R
Sampling rate : 48.0 kHz
Frame rate : 31.250 FPS (1536 SPF)
Bit depth : 16 bits
Compression mode : Lossy
Stream size : 171 MiB (7%)
Language : Polish
Service kind : Complete Main
Default : Yes
Forced : Yes
Audio 2
ID : 3
Format : AC-3
Format/Info : Audio Coding 3
Format settings, Endianness : Big
Codec ID : A_AC3
Duration : 1 h 2 min
Bit rate mode : Constant
Bit rate : 384 kb/s
Channel(s) : 6 channels
Channel positions : Front: L C R, Side: L R, LFE
Sampling rate : 48.0 kHz
Frame rate : 31.250 FPS (1536 SPF)
Bit depth : 16 bits
Compression mode : Lossy
Stream size : 171 MiB (7%)
Language : English
Service kind : Complete Main
Default : No
Forced : No
Text
ID : 4
Format : UTF-8
Codec ID : S_TEXT/UTF8
Codec ID/Info : UTF-8 Plain Text
Duration : 1 h 0 min
Bit rate : 36 b/s
Count of elements : 385
Stream size : 15.9 KiB (0%)
Language : Polish
Default : No
Forced : No
Pliki
 [Pokaż/ukryj Pliki]
(1) file
Ocena N/A
Tracker
 [Pokaż/ukryj Trackery] 
Podobne


Komentarze


Brak Komentarzy!!!