User:      Hasło:     



User Info
User:
Hasło:
Stwórz kontoOdzyskiwanie hasła


Kategorie


Wojownicze żółwie ninja: Wyjście z cienia 3D / Teenage Mutant Ninja Turtles: Out of the Shadows *2016* [mini-HD 1080p 3D Half Over-Under AC3 BluRay x264] [Dubbing i Napisy PL]


Kategoria: Filmy 3D

Gatunek: Akcja / Sensacyjny

Dodał:  dragon20010
Data dodania: 
24-09-2016
Rozmiar: 3.96 GB

Seedów: 14
Peerów: 8
Ukończone: 14

Pobrany: 300

Kondycja:

Pobierz



scenariusz: Josh Appelbaum, André Nemec
gatunek: Komedia, Akcja, Sci-Fi
produkcja: USA
premiera: 1 czerwca 2016 (Polska) 30 maja 2016 (świat)
czas trwania: 112 min.



Oparta na popularnej serii o wojowniczych żółwiach ninja kontynuacja wielkiego przeboju kinowego z 2014 r. I tym razem czterech wojowniczych śmiałków stanie w obronie zagrożonego miasta. Donatello, Michaelangelo, Raphael i Splinter będą musieli zmierzyć się z niebezpieczeństwem, o jakim nawet nie śnili.



Megan Fox .... April O`Neil
Will Arnett .... Vernon Fenwick
Laura Linney .... Szefowa Vincent
Stephen Amell .... Casey Jones
Noel Fisher .... Michelangelo
Jeremy Howard .... Donatello
Pete Ploszek .... Leonardo
Alan Ritchson .... Raphael



Format : Matroska
Format version : Version 2
File size : 3.96 GiB
Duration : 1h 52mn
Overall bit rate : 5 056 Kbps
Encoded date : UTC 2016-09-15 16:40:50
Writing application : mkvmerge v5.7.0 ('The Whirlwind') built on Jul 8 2012 20:08:51
Writing library : libebml v1.2.3 + libmatroska v1.3.0

Video
ID : 1
Format : AVC
Format/Info : Advanced Video Codec
Format profile : High@L4.1
Format settings, CABAC : Yes
Format settings, ReFrames : 4 frames
Codec ID : V_MPEG4/ISO/AVC
Duration : 1h 52mn
Bit rate : 4 749 Kbps
Width : 1 920 pixels
Height : 1 080 pixels
Display aspect ratio : 16:9(OAR 2.39:1)
Frame rate mode : Constant
Frame rate : 23.976 (24000/1001) fps
Color space : YUV
Chroma subsampling : 4:2:0
Bit depth : 8 bits
Scan type : Progressive
Bits/(Pixel*Frame) : 0.096
Stream size : 3.68 GiB (93%)
Writing library : x264 core 148 r2638 7599210
Encoding settings : cabac=1 / ref=4 / deblock=1:-1:-1 / rc=2pass
Default : Yes
Forced : No

Audio #1
ID : 2
Format : AC-3
Format/Info : Audio Coding 3
Mode extension : CM (complete main)
Format settings, Endianness : Big
Codec ID : A_AC3
Duration : 1h 52mn
Bit rate mode : Constant
Bit rate : 128 Kbps
Channel(s) : 2 channels
Channel positions : Front: L R
Sampling rate : 48.0 KHz
Compression mode : Lossy
Stream size : 103 MiB (3%)
Title : AC3 2.0 Dubbing PL
Language : Polish
Default : Yes
Forced : No

Audio #2
ID : 3
Format : AC-3
Format/Info : Audio Coding 3
Mode extension : CM (complete main)
Format settings, Endianness : Big
Codec ID : A_AC3
Duration : 1h 52mn
Bit rate mode : Constant
Bit rate : 128 Kbps
Channel(s) : 2 channels
Channel positions : Front: L R
Sampling rate : 48.0 KHz
Compression mode : Lossy
Stream size : 103 MiB (3%)
Title : AC3 2.0 ENG
Language : English
Default : No
Forced : No

Text #1
ID : 4
Format : UTF-8
Codec ID : S_TEXT/UTF8
Codec ID/Info : UTF-8 Plain Text
Title : napisy srt POL
Language : Polish
Default : No
Forced : No

Text #2
ID : 5
Format : UTF-8
Codec ID : S_TEXT/UTF8
Codec ID/Info : UTF-8 Plain Text
Title : srt ENG
Language : English
Default : No
Forced : No

Text #3
ID : 6
Format : PGS
Muxing mode : zlib
Codec ID : S_HDMV/PGS
Codec ID/Info : Picture based subtitle format used on BDs/HD-DVDs
Title : napisy 3D sup. PL
Language : Polish
Default : No
Forced : No

Text #4
ID : 7
Format : PGS
Muxing mode : zlib
Codec ID : S_HDMV/PGS
Codec ID/Info : Picture based subtitle format used on BDs/HD-DVDs
Title : napisy 3D sup.ENG
Language : English
Default : No
Forced : No
Pliki
 [Pokaż/ukryj Pliki]
(2) files
Ocena N/A
Tracker
Podobne


Komentarze




max3gradus24/09/2016 18.08.49
Dzięki tak dalej pozdrawiam.