User:      Hasło:     



User Info
User:
Hasło:
Stwórz kontoOdzyskiwanie hasła


Kategorie


Egzorcysta S01E12-13 [1080p WEBRip x264 AC3] [PL]


Kategoria: Seriale Zagraniczne


Dodał:  Morus12
Data dodania: 
14-01-2018
Rozmiar: 906.02 MB

Seedów: 0
Peerów: 0
Ukończone: ---

Pobrany: 9

Kondycja:

Pobierz






produkcja: PL
gatunek: Komedia, Animacja
twĂłrca: Bartosz Walaszek
czas trwania: ok. 11 min.



Egzorcysta to czÂłowiek do ktĂłrego dzwoni siĂŞ w ostatecznoÂści. Na co dzieĂą zajmuje siĂŞ pracami budowlano-remontowymi. Ale w ramach powoÂłania - walczy z demonami, wampirami, duchami i tym podobnym cholerstwem.



Format : Matroska
Format version : Version 4 / Version 2
File size : 435 MiB
Duration : 10 min 57 s
Overall bit rate : 5 546 kb/s
Encoded date : UTC 2018-01-11 19:55:38

Video
ID : 1
Format : AVC
Format/INFO : Advanced Video Codec
Format profile : High@L4.1
Format settings, CABAC : Yes
Format settings, RefFrames : 2 frames
Codec ID : V_MPEG4/ISO/AVC
Duration : 10 min 57 s
Bit rate : 5 160 kb/s
Nominal bit rate : 5 750 kb/s
Width : 1 920 pixels
Height : 1 080 pixels
Display aspect ratio : 16:9
Frame rate mode : Constant
Frame rate : 29.970 (29970/1000) FPS
Color space : YUV
Chroma subsampling : 4:2:0
Bit depth : 8 bits
Scan type : Progressive
Bits/(Pixel*Frame) : 0.083
Stream size : 405 MiB (93%)
Writing library : x264 core 148
Color range : Limited
Color primaries : BT.709
Transfer characteristics : BT.709
Matrix coefficients : BT.709

Audio
ID : 2
Format : AC-3
Format/INFO : Audio Coding 3
Format settings, Endianness : Big
Codec ID : A_AC3
Duration : 10 min 57 s
Bit rate mode : Constant
Bit rate : 384 kb/s
Channel(s) : 2 channels
Channel positions : Front: L R
Sampling rate : 48.0 kHz
Frame rate : 31.250 FPS (1536 SPF)
Bit depth : 16 bits
Compression mode : Lossy
Stream size : 30.1 MiB (7%)
Language : Polish
Service kind : Complete Main*censored*

 
Pliki
 [Pokaż/ukryj Pliki]
(2) files
Ocena N/A
Tracker
 [Pokaż/ukryj Trackery] 
Podobne
Nie znaleziono podobnych tytułów!


Komentarze


Brak Komentarzy!!!