User:      Hasło:     



User Info
User:
Hasło:
Stwórz kontoOdzyskiwanie hasła


Kategorie


The Legend of Tarzan *2016* [CAMRip X264 AAC PRiME] [Hindi]


Kategoria: Filmy TS/CAM

Gatunek: Przygodowy

Dodał:  Dezerter33
Data dodania: 
05-07-2016
Rozmiar: 708.88 MB

Seedów: 905
Peerów: 384
Ukończone: 3546

Pobrany: 79

Kondycja:

Pobierz



Produkcja: USA
Gatunek: Przygodowy
Premiera: 1 lipca 2016 (Polska), 30 czerwca 2016 (świat)
Reżyseria: David Yates
Scenariusz: Craig Brewer, Adam Cozad




Mijają lata, od kiedy Tarzan (Skarsgĺrd), opuścił afrykańską dżunglę na rzecz cywilizowanego życia w Londynie. Jako John Clayton III, Lord Greystoke decyduje się wrócić do Konga, gdzie ma pełnić funkcję emisariusza rządu z misją handlową. Nie zdaje sobie jednak sprawy z tego, że jest pionkiem w śmiertelnie niebezpiecznej grze targanego wolą zemsty, chciwego kapitana Leona Roma z Belgii (Waltz). Okazuje się, że osoby stojące za zabójczym spiskiem nie mają pojęcia, co rozpęta się za ich sprawą.




Alexander Skarsgĺrd .... John Clayton / Tarzan
Samuel L. Jackson .... George Washington Williams
Margot Robbie .... Jane Clayton
Djimon Hounsou .... Przywódca Mbonga
Christoph Waltz .... Leon Rom
Jim Broadbent .... Premier
Ben Chaplin .... Kapitan Moulle
Casper Crump .... Major Kerckhover




Format : MPEG-4
Format profile : Base Media
Codec ID : isom (isom/avc1)
File size : 700 MiB
Duration : 1h 40mn
Overall bit rate mode : Variable
Overall bit rate : 969 Kbps

Video
ID : 1
Format : AVC
Format/Info : Advanced Video Codec
Format profile : High@L4.1
Format settings, CABAC : Yes
Format settings, ReFrames : 5 frames
Codec ID : avc1
Codec ID/Info : Advanced Video Coding
Duration : 1h 40mn
Bit rate : 902 Kbps
Maximum bit rate : 3 719 Kbps
Width : 712 pixels
Height : 376 pixels
Display aspect ratio : 1.894
Frame rate mode : Constant
Frame rate : 23.976 (24000/1001) fps
Color space : YUV
Chroma subsampling : 4:2:0
Bit depth : 8 bits
Scan type : Progressive
Bits/(Pixel*Frame) : 0.141
Stream size : 651 MiB (93%)

Audio
ID : 2
Format : AAC
Format/Info : Advanced Audio Codec
Format profile : HE-AAC / LC
Codec ID : 40
Duration : 1h 40mn
Bit rate mode : Variable
Bit rate : 64.0 Kbps
Maximum bit rate : 73.1 Kbps
Channel(s) : 2 channels
Channel positions : Front: L R
Sampling rate : 48.0 KHz / 24.0 KHz
Frame rate : 23.438 fps (1024 spf)
Compression mode : Lossy
Stream size : 46.2 MiB (7%)
Language : Hindi
Pliki
 [Pokaż/ukryj Pliki]
(4) files
Ocena N/A
Tracker
Podobne


Komentarze


Brak Komentarzy!!!