User:      Hasło:     





User Info
User:
Hasło:
Stwórz kontoOdzyskiwanie hasła


Kategorie


Wataha S01E05 *2014* [HDTV XviD-Złośnicaa] [PL]


Kategoria: Seriale Polskie

Gatunek: 

Dodał: 
Data dodania: 
01-12-2016
Rozmiar: 430.09 MB

Seedów: 1
Peerów: 2
Ukończone: 13

Pobrany: 339

Kondycja:

Pobierz







produkcja: Polska
premiera: 12 października 2014 - Polska
gatunek: Sensacyjny
reżyseria: Marek Lechki
scenariusz: Kamil Chomiuk ,Krzysztof Maćkowski ,Wiktor Piątkowski,
Julie Rutterford, Artur Kowalewski, Wojciech Miłoszewski Maciej Maciejewski



Serial Wataha rozpoczyna się od zamachu bombowego, w którym giną oficerowie jednej z jednostek straży granicznej w Bieszczadach. Tylko jednemu z nich uda się przeżyć. Kapitan SG Wiktor Rebrow w wyniku zamachu traci nie tylko swoich przyjaciół, ale przede wszystkim ukochaną Ewę. Zagubiony, próbuje dociec, co się wydarzyło i kto za tym wszystkim stoi. Oficjalne śledztwo prowadzi prokuratura. Poznaniem prawdy są zainteresowani również jego przełożeni.



Leszek Lichota ... Wiktor Rebrow
Bartłomiej Topa ... Adam Grzywaczewski Grzywa
Aleksandra Popławska ... Prokurator Iga Dobosz
Andrzej Zieliński ... Komendant Konrad Markowski





Video
ID                                       : 0
Format                                   : MPEG-4 Visual
Format profile                           : Advanced Simple@L5
Format settings, BVOP                    : 2
Format settings, QPel                    : No
Format settings, GMC                     : No warppoints
Format settings, Matrix                  : Default (H.263)
Codec ID                                 : XVID
Codec ID/Hint                            : XviD
Duration                                 : 52mn 32s
Bit rate                                 : 1 005 Kbps
Width                                    : 640 pixels
Height                                   : 352 pixels
Display aspect ratio                     : 16:9
Frame rate                               : 25.000 fps
Color space                              : YUV
Chroma subsampling                       : 4:2:0
Bit depth                                : 8 bits
Scan type                                : Progressive
Compression mode                         : Lossy
Bits/(Pixel*Frame)                       : 0.178
Stream size                              : 378 MiB (88%)
Writing library                          : XviD 63

Audio
ID                                       : 1
Format                                   : MPEG Audio
Format version                           : Version 1
Format profile                           : Layer 3
Mode                                     : Joint stereo
Mode extension                           : MS Stereo
Codec ID                                 : 55
Codec ID/Hint                            : MP3
Duration                                 : 52mn 32s
Bit rate mode                            : Constant
Bit rate                                 : 128 Kbps
Channel count                            : 2 channels
Sampling rate                            : 44.1 KHz
Compression mode                         : Lossy
Stream size                              : 48.1 MiB (11%)
Alignment                                : Split accross interleaves*censored*

 
Pliki
 [Pokaż/ukryj Pliki]
(5) files
Ocena N/A
Tracker
Podobne
Nie znaleziono podobnych tytułów!


Komentarze




Parker090912/11/2017 10.25.54
Witam, dołączam się do kolegów odcinki 4,5,6 stoją
Wrwoy19/10/2017 19.36.50
czesc 4,5,6 stoi
rumunm515/10/2017 18.09.12
daj seda czesci 3,4,5,6 bo drugi dzien stoi