User:      Hasło:     





User Info
User:
Hasło:
Stwórz kontoOdzyskiwanie hasła


Kategorie


Wataha S01E04 *2014* [HDTV XviD-Złośnicaa] [PL]


Kategoria: Seriale Polskie

Gatunek: 

Dodał: 
Data dodania: 
01-12-2016
Rozmiar: 264.94 MB

Seedów: 2
Peerów: 3
Ukończone: 15

Pobrany: 384

Kondycja:

Pobierz







produkcja: Polska
premiera: 12 października 2014 - Polska
gatunek: Sensacyjny
reżyseria: Marek Lechki
scenariusz: Kamil Chomiuk ,Krzysztof Maćkowski ,Wiktor Piątkowski,
Julie Rutterford, Artur Kowalewski, Wojciech Miłoszewski Maciej Maciejewski



Serial Wataha rozpoczyna się od zamachu bombowego, w którym giną oficerowie jednej z jednostek straży granicznej w Bieszczadach. Tylko jednemu z nich uda się przeżyć. Kapitan SG Wiktor Rebrow w wyniku zamachu traci nie tylko swoich przyjaciół, ale przede wszystkim ukochaną Ewę. Zagubiony, próbuje dociec, co się wydarzyło i kto za tym wszystkim stoi. Oficjalne śledztwo prowadzi prokuratura. Poznaniem prawdy są zainteresowani również jego przełożeni.



Leszek Lichota ... Wiktor Rebrow
Bartłomiej Topa ... Adam Grzywaczewski Grzywa
Aleksandra Popławska ... Prokurator Iga Dobosz
Andrzej Zieliński ... Komendant Konrad Markowski





Video
ID                                       : 0
Format                                   : MPEG-4 Visual
Format profile                           : Simple@L1
Format settings, BVOP                    : No
Format settings, QPel                    : No
Format settings, GMC                     : No warppoints
Format settings, Matrix                  : Default (H.263)
Codec ID                                 : FMP4
Duration                                 : 45mn 18s
Bit rate                                 : 674 Kbps
Width                                    : 640 pixels
Height                                   : 352 pixels
Display aspect ratio                     : 16:9
Frame rate                               : 25.000 fps
Color space                              : YUV
Chroma subsampling                       : 4:2:0
Bit depth                                : 8 bits
Scan type                                : Progressive
Compression mode                         : Lossy
Bits/(Pixel*Frame)                       : 0.120
Stream size                              : 219 MiB (83%)
Writing library                          : Lavc54.92.100

Audio
ID                                       : 1
Format                                   : MPEG Audio
Format version                           : Version 1
Format profile                           : Layer 3
Mode                                     : Joint stereo
Mode extension                           : MS Stereo
Codec ID                                 : 55
Codec ID/Hint                            : MP3
Duration                                 : 45mn 18s
Bit rate mode                            : Constant
Bit rate                                 : 128 Kbps
Channel count                            : 2 channels
Sampling rate                            : 48.0 KHz
Compression mode                         : Lossy
Stream size                              : 41.5 MiB (16%)
Alignment                                : Aligned on interleaves*censored*

 
Pliki
 [Pokaż/ukryj Pliki]
(5) files
Ocena N/A
Tracker
Podobne
Nie znaleziono podobnych tytułów!


Komentarze




carcom300018/10/2017 12.39.57
Serdecznie proszę o seeda 4,5,6 odcinka...