User:      Hasło:     



User Info
User:
Hasło:
Stwórz kontoOdzyskiwanie hasła


Kategorie


Zmartwychwstanie Adama / Adam Resurrected (2008) [AC3] [DVDRip] [XviD-NN] [Lektor PL] [Karibu]


Kategoria: Filmy DivX/XviD

Gatunek: Dramat / Obyczajowy

Dodał:  Karibu
Data dodania: 
09-07-2018
Rozmiar: 1.40 GB

Seedów: 34
Peerów: 53
Ukończone: 28

Pobrany: 46

Kondycja:

Pobierz



..::(Info)::..

Produkcja: Niemcy, USA, Izrael
Gatunek: Dramat, Wojenny
Premiera:30 sierpnia 2008 (świat)
Reżyseria: Paul Schrader
Scenariusz: Noah Stollman


..::(O Filmie)::..

https://www.filmweb.pl/film/Zmartwychwstanie+Adama-2008-260435
https://www.imdb.com/title/tt0479341/
https://www.rottentomatoes.com/m/adam_resurrected/
https://www.youtube.com/watch?v=GQ1hNtR-xhg

..::(Opis)::..

Izrael, lata 60. XX w. Adam Stain (Jeff Goldblum) przebywa w ośrodku dla ludzi ocalałych z Holocaustu. Jest pacjentem wyjątkowym – swoją charyzmą i siłą woli zadziwia lekarzy i pracowników placówki. Kiedyś był znanym komikiem, uwielbianym przez berlińską publiczność. Po wybuchu wojny trafił do obozu koncentracyjnego, gdzie został osobistą „zabawką” bezlitosnego komendanta Kleina (Willem Dafoe). Przez kilka lat żył jak pies, spełniający każdą zachciankę właściciela. Wiele lat  później, w piwnicy ośrodka znajduje małego chłopca, ukrywającego się pod łóżkiem i zachowującego się jak wystraszone szczenię. Obaj zdają się dzielić ten sam ból i lęk. Obaj będą uczyć się, jak znowu stać się ludźmi.

..::(Obsada)::..



..::(Dane Techniczne)::..

File size : 1.40 GiB
Duration : 1 h 42 min
Overall bit rate : 1 962 kb/s

Video
Codec ID/Hint : XviD
Duration : 1 h 42 min
Bit rate : 1 564 kb/s
Width : 720 pixels
Height : 304 pixels
Display aspect ratio : 2.35:1
Frame rate : 25.000 FPS
Stream size : 1.12 GiB (80%)

Audio x 2 Polski Lektor

Format : AC-3
Bit rate mode : Constant
Bit rate : 192 kb/s
Channel(s) : 2 channels
Channel positions : Front: L R
Sampling rate : 48.0 kHz
Stream size : 140 MiB (10%)

..::(Screeny)::..



Pliki
 [Pokaż/ukryj Pliki]
(2) files
Ocena N/A
Tracker
Podobne
Nie znaleziono podobnych tytułów!


Komentarze




PP09/07/2018 20.50.28
Polski lektor a nawet dwóch!