User:      Hasło:     



User Info
User:
Hasło:
Stwórz kontoOdzyskiwanie hasła


Kategorie


Był sobie pies - A Dogs Purpose *2017* [1080p BluRay x264 DTS-HDC] [ENG]


Kategoria: Filmy BluRay/HDTV 1080p

Gatunek: Familijne

Dodał:  Dezerter33
Data dodania: 
23-04-2017
Rozmiar: 8.74 GB

Seedów: 905
Peerów: 526
Ukończone: 6875

Pobrany: 57

Kondycja:

Pobierz



Produkcja: USA
Gatunek: Familijny, Komedia
Premiera: 17 lutego 2017 (Polska), 19 stycznia 2017 (świat)
Reżyseria: Lasse Hallström
Scenariusz: Cathryn Michon, W. Bruce Cameron, Audrey Wells, Maya Forbes, Wally Wolodarsky




Najlepszym przyjacielem człowieka jest pies, to fakt. A kto jest najlepszym przyjacielem psa? Bailey, czworonożny bohater tej opowieści nie ma wątpliwości: jego psie życie ma sens tylko u boku pewnego chłopca o imieniu Ethan. Gdy obaj są szczeniakami, wszystko sprowadza się do zabawy. Gdy dorastają, Ethan zamiast za piłką ugania się za dziewczynami, czasem wdaje się w bójkę – wtedy trzeba gryźć wroga w kostkę, a gdy zbije szybę sąsiadów, ktoś musi wziąć winę na siebie. Bailey jest więc szczęśliwy, bo jak każdy pies chce czuć się w życiu potrzebny. Nadchodzi jednak moment, w którym drogi przyjaciół się rozchodzą, a życie Ethana przestaje rozpieszczać. Wtedy Bailey musi wykazać się nad-psią siłą, by odnaleźć przyjaciela i podać mu pomocną łapę.




★ Josh Gad .... Bailey / Buddy / Tino / Ellie
★ Dennis Quaid .... Dorosły Ethan
★ Peggy Lipton .... Dorosła Hannah
★ K.J. Apa .... Nastoletni Ethan
★ Bryce Gheisar .... 8-letni Ethan
★ Juliet Rylance .... Mama Ethana
★ Luke Kirby .... Tata Ethana
★ Gabrielle Rose .... Babcia Fran




Video
ID : 1
Format : AVC
Format/Info : Advanced Video Codec
Format profile : High@L4.1
Format settings, CABAC : Yes
Format settings, ReFrames : 5 frames
Codec ID : V_MPEG4/ISO/AVC
Duration : 1h 40mn
Bit rate : 11.0 Mbps
Width : 1 920 pixels
Height : 804 pixels
Display aspect ratio : 2.40:1
Frame rate mode : Constant
Frame rate : 23.976 (24000/1001) fps
Color space : YUV
Chroma subsampling : 4:2:0
Bit depth : 8 bits
Scan type : Progressive
Bits/(Pixel*Frame) : 0.297
Stream size : 7.51 GiB (86%)
Title : A.Dogs.Purpose.2017.1080p.BluRay.x264.DTS-HDC

Audio
ID : 2
Format : DTS
Format/Info : Digital Theater Systems
Mode : 16
Format settings, Endianness : Big
Codec ID : A_DTS
Duration : 1h 40mn
Bit rate mode : Constant
Bit rate : 1 509 Kbps
Channel(s) : 6 channels
Channel positions : Front: L C R, Side: L R, LFE
Sampling rate : 48.0 KHz
Frame rate : 93.750 fps (512 spf)
Bit depth : 24 bits
Compression mode : Lossy
Stream size : 1.05 GiB (12%)
Title : A.Dogs.Purpose.2017.1080p.BluRay.x264.DTS-HDC
Language : English
Default : Yes
Forced : No
Pliki
 [Pokaż/ukryj Pliki]
(4) files
Ocena N/A
Tracker
Podobne


Komentarze


Brak Komentarzy!!!