User:      Hasło:     



User Info
User:
Hasło:
Stwórz kontoOdzyskiwanie hasła


Kategorie


The Big Bang Theory S11E16 - The Neonatal Nomenclature [1080p WEB-DL H 264 AC3] [Lektor PL]


Kategoria: Seriale Zagraniczne


Dodał:  Morus12
Data dodania: 
16-04-2018
Rozmiar: 752.28 MB

Seedów: 21
Peerów: 2
Ukończone: 244

Pobrany: 12

Kondycja:

Pobierz






produkcja: USA
gatunek: Komedia
twĂłrca: Chuck Lorre, Bill Prady, Steven Molaro
muzyka: Barenaked Ladies, Benson Taylor
zdjĂŞcia: Steven V. Silver
czas trwania: ok. 19 min.



Fizycy Leonard i Sheldon rozumiejÂą wszystko poczÂąwszy od nieuchronnego przyciÂągania czarnej dziury, a skoĂączywszy na skomplikowanej budowie atomu. Ale jeÂśli zÂłoÂżycie te atomy w kobietĂŞ, wtedy ich rozumowanie nagle siĂŞ koĂączy. A kiedy Penny, kobieta ze wszystkimi atomami we wÂłaÂściwym miejscu, wprowadza siĂŞ do mieszkania naprzeciwko, wszechÂświat Leonarda i Sheldona zaczyna siĂŞ rozszerzaĂŚ do rozmiarĂłw, ktĂłrych nigdy nie podejrzewali.



Johnny Galecki - Leonard Hofstadter
Jim Parsons - Sheldon Cooper
Kaley Cuoco - Penny
Simon Helberg - Howard Wolowitz
Kunal Nayyar - Rajesh Koothrappali



Format : Matroska
Format version : Version 4 / Version 2
File size : 752 MiB
Duration : 18 min 50 s
Overall bit rate : 5 581 kb/s
Encoded date : UTC 2018-04-13 14:05:07

Video
ID : 1
Format : AVC
Format/INFO : Advanced Video Codec
Format profile : High@L4
Format settings, CABAC : Yes
Format settings, RefFrames : 4 frames
Codec ID : V_MPEG4/ISO/AVC
Duration : 18 min 50 s
Bit rate : 5 195 kb/s
Width : 1 912 pixels
Height : 1 072 pixels
Display aspect ratio : 16:9
Frame rate mode : Constant
Frame rate : 23.976 (24000/1001) FPS
Color space : YUV
Chroma subsampling : 4:2:0
Bit depth : 8 bits
Scan type : Progressive
Bits/(Pixel*Frame) : 0.106
Stream size : 700 MiB (93%)
Color range : Limited
Color primaries : BT.709
Transfer characteristics : BT.709
Matrix coefficients : BT.709

Audio
ID : 2
Format : AC-3
Format/INFO : Audio Coding 3
Format settings, Endianness : Big
Codec ID : A_AC3
Duration : 18 min 50 s
Bit rate mode : Constant
Bit rate : 384 kb/s
Channel(s) : 2 channels
Channel positions : Front: L R
Sampling rate : 48.0 kHz
Frame rate : 31.250 FPS (1536 SPF)
Bit depth : 16 bits
Compression mode : Lossy
Stream size : 51.8 MiB (7%)
Language : Polish
Service kind : Complete Main*censored*

 
Pliki
 [Pokaż/ukryj Pliki]
(1) file
Ocena N/A
Tracker
 [Pokaż/ukryj Trackery] 
Podobne


Komentarze


Brak Komentarzy!!!