User:      Hasło:     



User Info
User:
Hasło:
Stwórz kontoOdzyskiwanie hasła


Kategorie


Mission: Impossible - Fallout (2018) [1080p] [WEB-DL DD5 1] [H264] [CMRG] [ENG] [Napisy PL]


Kategoria: Filmy BluRay/HDTV 1080p

Gatunek: Akcja / Sensacyjny

Dodał:  RIAS
Data dodania: 
07-11-2018
Rozmiar: 5.68 GB

Seedów: 102
Peerów: 120
Ukończone: 234

Pobrany: 37

Kondycja:

Pobierz



Produkcja: USA
Gatunek: Sensacyjny
Premiera: 10 sierpnia 2018 (Polska), 12 lipca 2018 (świat)
Reżyseria: Christopher McQuarrie
Scenariusz: Christopher McQuarrie

NAPISY


Code
Polski, Bułgarski, Hiszpański, Czeski, Francuski Serbski, Rumuński, Grecki



Konsekwencje zakończonej niepowodzeniem misji IMF może odczuć cały świat. Aby zapobiec katastrofie, Ethan Hunt i jego zespół muszą stanąć do wyścigu z czasem.



Tom Cruise .... Ethan Hunt
Henry Cavill .... August Walker
Ving Rhames .... Luther Stickell
Simon Pegg .... Benji Dunn
Rebecca Ferguson .... Ilsa Faust
Sean Harris .... Solomon Lane
Angela Bassett .... Erika Sloane
Vanessa Kirby .... Biała Wdowa





Cytuj:
General
Complete name : Mission.Impossible.Fallout.2018.1080p.WEB-DL.DD5.1.H264-CMRG.mkv
Format : Matroska
Format version : Version 4 / Version 2
File size : 5.68 GiB
Duration : 2h 27mn
Overall bit rate : 5 510 Kbps
Movie name : CMRG
Encoded date : UTC 2018-11-07 12:02:21
Writing application : mkvmerge v27.0.0 ('Metropolis') 32-bit
Writing library : libebml v1.3.6 + libmatroska v1.4.9

Video
ID : 1
Format : AVC
Format/Info : Advanced Video Codec
Format profile : High@L4
Format settings, CABAC : Yes
Format settings, ReFrames : 4 frames
Codec ID : V_MPEG4/ISO/AVC
Duration : 2h 27mn
Bit rate : 5 124 Kbps
Width : 1 920 pixels
Height : 1 012 pixels
Display aspect ratio : 1.897
Frame rate mode : Constant
Frame rate : 23.976 (24000/1001) fps
Color space : YUV
Chroma subsampling : 4:2:0
Bit depth : 8 bits
Scan type : Progressive
Bits/(Pixel*Frame) : 0.110
Stream size : 5.29 GiB (93%)
Language : English
Default : Yes
Forced : No
Color range : Limited
Color primaries : BT.709
Transfer characteristics : BT.709
Matrix coefficients : BT.709

Audio
ID : 2
Format : AC-3
Format/Info : Audio Coding 3
Mode extension : CM (complete main)
Format settings, Endianness : Big
Codec ID : A_AC3
Duration : 2h 27mn
Bit rate mode : Constant
Bit rate : 384 Kbps
Channel(s) : 6 channels
Channel positions : Front: L C R, Side: L R, LFE
Sampling rate : 48.0 KHz
Frame rate : 31.250 fps (1536 spf)
Compression mode : Lossy
Delay relative to video : -43ms
Stream size : 405 MiB (7%)
Language : English
Default : Yes
Forced : No

Text #1
ID : 3
Format : UTF-8
Codec ID : S_TEXT/UTF8
Codec ID/Info : UTF-8 Plain Text
Duration : 2h 20mn
Bit rate : 70 bps
Count of elements : 1132
Stream size : 72.3 KiB (0%)
Language : Bulgarian
Default : Yes
Forced : No

Text #2
ID : 4
Format : UTF-8
Codec ID : S_TEXT/UTF8
Codec ID/Info : UTF-8 Plain Text
Duration : 2h 19mn
Bit rate : 52 bps
Count of elements : 1314
Stream size : 53.1 KiB (0%)
Language : Polish
Default : No
Forced : No

Text #3
ID : 5
Format : UTF-8
Codec ID : S_TEXT/UTF8
Codec ID/Info : UTF-8 Plain Text
Duration : 2h 19mn
Bit rate : 46 bps
Count of elements : 1365
Stream size : 47.2 KiB (0%)
Language : Spanish
Default : No
Forced : No

Text #4
ID : 6
Format : UTF-8
Codec ID : S_TEXT/UTF8
Codec ID/Info : UTF-8 Plain Text
Duration : 2h 26mn
Bit rate : 46 bps
Count of elements : 1647
Stream size : 50.4 KiB (0%)
Language : French
Default : No
Forced : No

Text #5
ID : 7
Format : UTF-8
Codec ID : S_TEXT/UTF8
Codec ID/Info : UTF-8 Plain Text
Duration : 2h 19mn
Bit rate : 44 bps
Count of elements : 1317
Stream size : 45.9 KiB (0%)
Language : Czech
Default : No
Forced : No

Text #6
ID : 8
Format : UTF-8
Codec ID : S_TEXT/UTF8
Codec ID/Info : UTF-8 Plain Text
Duration : 2h 19mn
Bit rate : 53 bps
Count of elements : 1357
Stream size : 55.0 KiB (0%)
Language : Romanian
Default : No
Forced : No

Text #7
ID : 9
Format : UTF-8
Codec ID : S_TEXT/UTF8
Codec ID/Info : UTF-8 Plain Text
Duration : 2h 19mn
Bit rate : 41 bps
Count of elements : 1266
Stream size : 42.2 KiB (0%)
Language : Serbian
Default : No
Forced : No

Text #8
ID : 10
Format : UTF-8
Codec ID : S_TEXT/UTF8
Codec ID/Info : UTF-8 Plain Text
Duration : 2h 19mn
Bit rate : 76 bps
Count of elements : 1199
Stream size : 78.7 KiB (0%)
Language : Greek
Default : No
Forced : No


















Pliki
 [Pokaż/ukryj Pliki]
(2) files
Ocena N/A
Tracker
Podobne


Komentarze




cypis08/11/2018 22.15.49
no jak cyrylica to Polski alfabet to film jest z polskimi napisami